#TITLE:Trisection;
#SUBTITLE:Final Fantasy Tactics;
#ARTIST:Glome & Hiroshi Sakimoto;
#TITLETRANSLIT:;
#SUBTITLETRANSLIT:;
#ARTISTTRANSLIT:;
#CREDIT:;
#BANNER:Trisection.jpg;
#BACKGROUND:Trisection-bg.jpg;
#LYRICSPATH:;
#CDTITLE:!yesssss-cdtitle.png;
#MUSIC:Trisection.mp3;
#OFFSET:-0.043;
#SAMPLESTART:26.004;
#SAMPLELENGTH:12.000;
#SELECTABLE:YES;
#BPMS:0.000=140.000,132.000=70.000,134.000=140.000,146.000=70.000,148.000=140.000,258.000=70.000,262.000=140.000,270.000=70.000,274.000=140.000;
#STOPS:;
#BGCHANGES:;
// cache tags:
#FIRSTBEAT:0.000;
#LASTBEAT:325.167;
#SONGFILENAME:Songs/Music V.I.P ^_^/Trisection (Yesssss)/Trisection.sm;
#HASMUSIC:1;
#HASBANNER:1;
#MUSICLENGTH:146.453;
// end cache tags

//---------------dance-single - OMG JACKS----------------
#NOTES:
     dance-single:
     OMG JACKS:
     Challenge:
     15:
     1.000,1.000,1.000,0.273,1.000,1190.000,480.000,40.000,0.000,0.000:


0101
0011
1001
0001
0001
0101
0001
0001
0011
0001
0001
1001
0001
0001
0101
0001
,
0011
0101
1001
0001
0001
0011
0001
0001
1000
0001
0100
0010
1001
0000
0110
0000
,
0011
1010
0101
0100
0101
0100
0100
0100
0101
0100
0100
0100
0101
0100
0100
0100
,
0101
0010
1000
0010
0101
0100
0100
0100
0101
0010
1000
0010
0101
0000
1001
0000
,
1001
1010
1100
1000
1000
1010
1000
1000
1100
1000
1000
1001
1000
1000
1100
1000
,
1010
1100
1001
1000
1000
1010
1000
1000
1100
1010
1001
1100
1010
0000
0110
0000
,
1010
0011
0110
0010
0010
0011
0010
0010
1010
0010
0010
0110
0010
0010
0011
0010
,
1010
0011
0110
0010
0010
0011
0010
0010
1010
0011
0110
1010
0101
0000
0011
0000
,
0011
1001
0101
0001
0001
1001
0001
0001
0101
0001
0001
0011
0001
0001
0101
0001
,
1001
0011
0101
0001
0001
1001
0001
0001
0011
1010
0101
0110
1001
0000
1010
0000
,
1100
1001
1010
1000
1000
1001
1000
1000
1100
1000
1000
1010
1000
1000
1001
1000
,
0001
0100
0010
1000
0001
0100
0010
1000
0001
0100
0010
1000
0001
0100
0010
1000
0001
0100
0010
1000
0001
0100
0010
1000
,
0101
0011
1001
0000
1001
0000
0101
0000
1010
0000
1001
0000
0110
0000
1010
0000
,
0101
0000
0011
0000
1100
0000
1001
0000
0110
0101
0011
0000
0011
0000
0110
0000
,
1001
0000
0011
0000
1100
0000
0110
0000
1010
0000
1100
0010
0001
0010
1100
0000
,
0101
0110
1010
0000
1010
0000
0101
0000
0110
0000
0101
0000
1010
0000
0011
0000
,
1100
0000
0110
0000
1001
0000
1010
0000
0101
0110
1010
0000
1010
0000
0011
0000
,
1100
0000
0101
0000
0110
0000
0011
0000
1100
0000
0101
0001
1001
0001
0101
0000
,
1010
0110
0011
0000
0011
0000
1010
0000
0101
0000
0011
0000
1100
0000
0101
0000
,
1010
0000
0110
0000
1001
0000
0011
0000
1100
1010
0110
0000
0110
0000
1100
0000
,
0011
0000
0110
0000
1001
0000
1100
0000
0101
0000
1001
0100
0010
0100
1001
0000
,
1010
1100
0101
0000
0101
0000
1010
0000
1100
0000
1010
0000
0101
0000
0110
0000
,
1001
0000
1100
0000
0011
0000
0101
0000
1010
1100
0101
0000
0101
0000
0110
0000
,
1001
0000
1010
0000
1100
0000
0110
0000
1001
0000
1010
0010
0011
0010
1010
0000
,
1010
1001
1100
0000
1100
0000
1010
0000
0101
0000
1100
0000
0011
0000
0101
0000
,
1010
0000
1001
0000
0110
0000
1100
0000
0011
1010
1001
0000
1001
0000
0011
0000
,
1100
0000
1001
0000
0110
0000
0011
0000
0101
0000
0110
0001
1000
0001
0110
0000
,
1010
0011
0101
0000
0101
0000
1010
0000
0011
0000
1010
0000
0101
0000
1001
0000
,
0110
0000
0011
0000
1100
0000
0101
0000
1010
0011
0101
0000
0101
0000
1001
0000
,
0110
0000
1010
0000
2002
0000
0000
3003
0220
0000
0000
0330
2002
0000
0000
3003
,
1100
0010
0001
0010
0100
1000
0100
0010
0001
0010
0100
1000
0100
0010
0001
0010
0100
1000
0101
0010
0100
0001
1000
0010
,
1100
0001
0010
0100
0010
1000
0100
0010
0100
0001
0010
0100
1010
0001
0100
0010
0001
1000
0101
0010
1000
0100
0010
0001
,
1100
0010
1000
0100
0010
0001
0010
0100
1000
0010
0100
0001
0010
0100
1000
0010
0100
0001
1010
0001
0100
0010
1000
0100
,
1001
0000
0000
0000
0000
0000
0000
0000
0000
0000
0000
0000
0000
0000
0000
0000
0000
0000
0011
0000
0000
0000
0000
0000
0000
0000
0000
0000
0000
0000
0000
0000
0000
0000
0000
0000
1010
0000
0000
0000
0000
0000
0000
0000
0000
0000
0000
0000
0000
0000
0000
0000
0000
0000
0101
0000
0000
0000
0000
0000
0000
0000
0000
0000
0000
0000
0000
0000
0000
0000
0000
0000
0110
0000
0000
0000
0000
0000
0000
0000
0000
0000
0000
0000
1100
0000
0000
0000
0000
0000
0001
0000
0000
0000
0000
0000
0010
0000
0000
0000
0000
0000
0000
0000
0100
0000
0000
0000
0000
0000
0000
0000
0001
0000
0000
0000
0000
0000
0000
0000
0100
0000
0000
0000
0000
0000
0000
0000
0010
0000
0000
0000
0000
0000
0000
0000
1000
0000
0000
0000
0000
0000
0000
0000
0010
0000
0000
0000
0000
0000
0000
0000
0100
0000
0000
0000
0000
0000
0000
0000
0001
0000
0000
0000
0000
0000
0000
0000
0100
0000
0000
0000
0000
0000
0000
0000
0010
0000
0000
0000
0000
0000
0000
0000
1000
0000
0000
0000
0000
0000
0000
0000
,
0010
0100
0001
0100
0010
1000
0110
1000
0100
1000
0001
0010
1001
0100
0010
0001
0100
1000
0100
0010
0001
0100
1000
0100
,
1010
0001
0010
1000
0100
0010
1001
0100
1001
0010
0001
1000
0110
0001
1000
0010
0100
0001
1000
0010
0100
0001
1000
0010
,
0100
0000
0000
0000
0000
0000
0000
0000
0001
0000
0000
0000
0000
0000
0000
0000
1000
0000
0000
0000
0000
0000
0000
0000
0010
0000
0000
0000
0000
0000
0000
0000
0100
0000
0000
0000
0000
0000
0000
0000
0001
0000
0000
0000
0000
0000
0000
0000
1010
0000
0000
0000
0000
0000
0000
0000
0100
0000
0000
0000
0000
0000
0000
0000
0001
0000
0000
0000
0000
0000
0000
0000
0010
0000
0000
0000
0000
0000
0000
0000
1000
0000
0000
0000
0000
0000
0000
0000
0100
0000
0000
0000
0000
0000
0000
0000
0011
0000
0000
0000
0000
0000
0000
0000
0000
0000
0000
0000
0000
0000
0000
0000
0000
0000
0110
0000
0000
0000
0000
0000
0000
0000
0000
0000
0000
0000
0000
0000
0000
0000
0000
0000
0101
0000
0000
0000
0000
0000
0000
0000
0000
0000
0000
0000
0000
0000
0000
0000
0000
0000
1010
0000
0000
0000
0000
0000
0000
0000
0000
0000
0000
0000
0000
0000
0000
0000
0000
0000
1100
0000
0000
0000
0000
0000
0000
0000
0000
0000
0000
0000
1001
0000
0000
0000
0000
0000
0100
0000
0000
0000
0000
0000
,
1010
0001
0010
0100
1001
0100
0010
0001
1010
0001
0220
0000
0000
0330
1000
0100
,
0011
0100
0010
0001
0110
1000
0100
0010
1001
0010
2200
0000
0000
3300
0001
0100
,
0011
1000
0010
0100
0011
0100
0010
1000
0011
0100
2020
0000
0000
3030
0100
0001
,
1010
0001
0010
0001
0100
0010
0100
0001
1100
0001
0100
1000
0100
0001
1000
0000
,
0110
0001
1000
0001
0110
1000
0001
1000
0110
0001
2200
0000
0000
3300
0001
0010
,
0101
0010
0001
1000
0101
0010
0001
1000
0101
0010
2002
0000
0000
3003
0010
0100
,
1010
0100
1000
0001
1010
0001
1000
0100
1010
0001
0220
0000
0000
0330
1000
0100
,
0011
0100
1000
0001
0100
0010
1000
0100
0011
0100
0001
1000
0010
0100
1000
0000
,
0110
0110
0000
0110
0000
0110
0110
0000
2100
0000
0000
0000
0001
0000
0000
3000
,
0120
0000
0000
0000
1000
0000
0000
0030
0201
0000
0000
0000
0010
0000
0000
0300
,
0012
0000
0000
0000
0100
0000
0000
0003
1200
0000
0000
0000
0010
0000
0000
0300
,
0021
0000
0000
0030
2100
0000
0000
3000
0201
0000
0000
0000
0010
0000
0000
0300
,
1000
0000
0100
0000
0010
0000
0001
0000
0100
0000
0010
0000
1001
0100
0010
0001
0010
0100
1000
0100
0010
0001
0010
0100
,
1000
0100
0010
0001
0010
0100
1000
0100
0010
0001
0010
0100
1001
0010
0100
0010
0001
1000
0100
0010
0100
1000
0001
0010
,
0100
0010
0001
1000
0100
0010
0100
1000
0001
0010
0100
0010
1001
0010
0100
0001
0100
0010
1000
0010
0100
0001
0100
0010
,
1000
0010
0100
0001
0100
0010
1000
0010
0100
0001
0100
0010
1100
0010
0001
1000
0100
0010
0001
1000
0100
0010
0001
1000
,
0100
0010
0001
0010
0100
0010
0001
1000
0100
0010
0100
1000
0110
1000
0010
0100
0001
1000
0010
0100
0001
1000
0010
0100
,
0001
1000
0010
0100
0001
1000
0010
0100
0001
1000
0010
0100
1001
0010
0001
1000
0100
0010
0001
1000
0100
0010
0001
1000
,
0100
0010
0001
1000
0100
0010
0001
1000
0100
0010
0001
1000
0011
1000
0011
1000
0110
1000
0011
1000
0011
1000
0011
1000
,
0011
1000
0011
1000
0011
1000
0110
1000
0011
1000
0011
1000
0110
0001
1100
0001
1100
0001
0110
0001
1100
0001
1100
0001
,
0110
0001
1100
0001
1100
0001
1100
0001
1100
0001
1100
0001
1100
0010
0101
0010
0101
0010
1100
0010
0101
0010
0101
0010
,
1100
0010
0101
0010
0101
0010
0101
0010
0101
0010
0101
0010
1001
0100
1010
0100
1010
0100
0011
0100
1010
0100
1010
0100
,
0011
0100
1010
0100
1010
0100
1010
0100
1010
0100
1010
0100
1010
0000
0100
0000
0010
0000
0001
0000
0100
0000
0010
0000
,
0100
0000
1000
0000
0100
0000
0010
0000
0001
0000
0010
0000
2200
0000
0000
0000
0000
0000
0000
0000
3300
0010
0001
0100
,
0022
0000
0000
0000
0000
0000
0000
0000
0033
0100
1000
0001
0220
0000
0000
0000
0000
0000
0000
0000
0000
0000
0000
0000
,
0000
0000
0000
0000
0000
0000
0000
0000
0330
1000
0001
0100
2020
0000
0000
0000
0000
0000
0000
0000
0000
0000
0000
0000
,
0000
0000
0000
0000
0000
0000
0000
0000
3030
0100
1000
0010
0202
0000
0000
0000
0000
0000
0000
0000
0000
0000
0000
0000
,
0000
0000
0000
0000
0000
0000
0000
0000
0000
0000
0000
0303
1010
0000
0101
0000
0110
0000
0011
0000
1010
0000
0101
0000
,
1001
0000
0011
0000
0110
0000
1001
0000
1100
0000
0011
0000
1010
0001
1010
0001
1010
0001
1010
0001
1010
0001
1010
0001
,
0110
0001
1010
0001
1010
0001
1010
0001
1010
0001
1010
0001
1010
0001
1010
0001
1010
0001
1010
0001
1010
0001
1010
0001
,
0110
0000
0001
0000
1010
0000
0001
0000
1010
0000
0001
0000
1010
0000
0001
0000
1010
0000
0001
0000
1010
0000
0001
0000
1010
0000
0000
0000
0000
0000
1000
1000
0000
0000
0000
0000
0010
0010
0010
0000
0000
0000
1000
1000
1000
1000
0000
0000
,
0100
0100
0100
0100
0000
0000
0001
0001
0001
0001
0000
0000
0010
0010
0010
0010
0000
0000
0100
0000
0100
0000
0100
0000
1010
0000
0000
0110
0000
0000
0011
0000
0000
0010
0000
0000
0010
0000
0000
0110
0000
0000
0010
0000
0000
0010
0000
0000
,
1010
0010
0010
0011
0010
0010
0110
0010
0011
1010
0110
0010
0010
1010
0010
0010
,
0100
1000
0010
0100
0011
0000
0101
0000
1100
0110
1100
0100
0100
0101
0100
0100
,
1100
0100
0100
0110
0100
0100
0110
0100
0110
0011
1100
0101
1010
0110
1001
0011
,
0110
1010
0101
1010
0110
0000
1001
0000
1001
0101
0011
0001
0001
0101
0001
0001
,
0011
0001
0001
1001
0001
0001
0101
0001
0101
0011
0101
0001
0001
0101
0001
0001
,
0010
0100
0010
1000
0101
0000
1010
0000
1010
1001
1100
1000
1000
1010
1000
1000
,
1100
1000
1000
1010
1000
1000
1001
1000
1001
1010
1001
1000
1000
1010
1000
1000
,
0010
0100
0001
0100
0011
0000
1100
0000
0110
0011
1010
0010
0010
0011
0010
0010
,
0110
0010
0010
0011
0010
0010
0110
0010
1010
0011
0110
0010
0010
1010
0010
0010
,
1000
0001
0100
0010
1001
0000
0110
0000
0101
1100
0110
0100
0100
0101
0100
0100
,
0110
0000
0000
0110
0000
0000
0110
0000
0000
0110
0000
0000
0110
0000
0000
0000
0000
0000
0100
0000
0000
0000
0000
0000
0001
0000
0010
0000
0100
0000
1000
0000
0001
0000
0010
0000
0100
0000
1000
0000
0001
0000
0010
0000
0100
0000
1000
0000
,
0001
0000
0010
0000
0100
0000
1000
0000
0001
0000
0010
0000
0100
0000
1000
0000
0001
0000
0010
0000
0100
0000
1000
0000
0220
0000
0000
0000
0000
0000
0000
0000
0000
0330
0000
0000
0220
0000
0000
0000
0000
0000
0000
0000
0000
0330
0000
0000
,
0000
0000
0000
0000
0000
0000
1000
0010
0000
0000
0000
0000
0000
0000
0000
0000
0000
0000
0000
0000
0000
0000
0000
0000
;

//---------------dance-single - ----------------
#NOTES:
     dance-single:
     :
     Hard:
     12:
     1.000,1.000,1.000,0.273,1.000,1192.000,185.000,40.000,0.000,0.000:

1100
0010
0101
0010
0100
1000
0010
0100
0001
0100
0001
1000
0100
1000
0010
0100
,
1001
0010
0101
1000
0100
0010
0100
1000
0110
1000
0100
0010
1001
0000
0101
0000
,
0110
0001
1010
0100
0010
0100
0001
1000
0100
0010
0100
1000
0001
0100
0010
0100
,
1000
0100
0001
0100
1000
0010
1000
0010
1000
0100
0001
0100
1010
0000
0101
0000
,
0011
1000
0101
0010
0100
0010
1000
0001
0100
0010
1000
0001
0010
0100
1000
0100
,
0011
0100
1001
0100
1000
0001
0100
0010
0101
0010
1000
0010
1100
0000
0101
0000
,
0011
0100
1010
0100
0001
0010
0100
0010
0001
0100
0010
1000
0001
0010
0001
0100
,
1010
0100
0011
0100
0010
1000
0100
0010
1001
0010
1000
0010
0101
0000
1010
0000
,
0011
1000
0101
0010
0100
0010
1000
0001
0100
0010
0100
0001
1000
0010
1000
0100
,
0011
0100
1001
0010
0100
1000
0001
0010
1001
0010
0100
0010
1001
0000
0011
0000
,
1010
0001
1100
0010
0001
1000
0010
0100
0010
1000
0001
0100
0010
0100
0001
1000
,
0001
0100
0010
1000
0001
0100
0010
1000
0001
0100
0010
1000
0001
0100
0010
1000
0001
0100
0010
1000
0001
0100
0010
1000
,
0101
0010
1000
0000
0100
0000
0101
0000
0010
0000
1000
0000
0110
0000
0010
0000
,
0001
0000
0110
0000
0100
0000
1000
0000
0110
0001
1000
0000
0001
0000
1010
0000
,
0100
0000
0001
0000
1001
0000
0100
0000
0010
0000
1100
0010
0001
0010
0100
0000
,
0101
0010
1000
0000
0010
0000
0101
0000
1000
0000
0001
0000
1010
0000
0001
0000
,
0100
0000
0011
0000
1000
0000
0010
0000
1001
0100
0010
0000
1000
0000
0101
0000
,
1000
0000
0100
0000
1001
0000
0010
0000
0100
0000
1001
0010
0100
0010
1001
0000
,
1010
0001
0100
0000
0010
0000
1010
0000
0001
0000
0100
0000
0010
0000
0001
0000
,
1100
0000
0001
0000
0010
0000
0101
0000
0010
1000
0100
0000
1000
0000
0101
0000
,
0010
0000
1000
0000
0100
0000
0010
0000
1001
0000
0010
0001
1000
0001
0010
0000
,
0010
0001
0100
0000
0001
0000
1010
0000
0010
0000
1000
0000
0010
0000
1000
0000
,
0101
0000
0010
0000
0100
0000
1010
0000
0100
0010
0001
0000
0100
0000
1010
0000
,
0100
0000
1000
0000
0100
0000
0010
0000
0101
0000
1000
0001
0010
0001
1000
0000
,
0011
0100
0001
0000
1000
0000
1010
0000
0100
0000
0001
0000
0100
0000
0001
0000
,
0110
0000
0001
0000
1000
0000
1010
0000
0100
0010
0001
0000
0010
0000
0101
0000
,
1000
0000
0010
0000
0001
0000
1000
0000
0110
0000
1000
0100
0010
0100
1000
0000
,
0010
0100
0001
0000
0100
0000
1010
0000
1000
0000
0010
0000
0100
0000
0001
0000
,
0110
0000
1000
0000
0001
0000
0110
0000
0001
1000
0100
0000
0001
0000
1010
0000
,
0001
0000
0100
0000
2002
0000
0000
3003
0220
0000
0000
0330
2002
0000
0000
3003
,
1000
0100
0010
0001
0010
0100
1000
0100
0010
0001
0010
0100
1000
0100
0010
0001
0010
0100
1000
0010
0100
0001
0010
0100
,
1000
0001
0100
0010
0100
0001
1000
0010
0100
0010
1000
0001
0100
0010
0100
0001
1000
0100
0010
0001
0100
0010
1000
0100
,
0010
0001
1000
0100
0010
0001
0010
0100
1000
0010
0100
0001
0010
0100
1000
0010
0100
0001
0010
0100
1000
0100
0010
0100
,
1001
0000
0000
0000
0000
0000
0000
0000
0000
0000
0000
0000
0000
0000
0000
0000
0000
0000
0011
0000
0000
0000
0000
0000
0000
0000
0000
0000
0000
0000
0000
0000
0000
0000
0000
0000
1010
0000
0000
0000
0000
0000
0000
0000
0000
0000
0000
0000
0000
0000
0000
0000
0000
0000
0101
0000
0000
0000
0000
0000
0000
0000
0000
0000
0000
0000
0000
0000
0000
0000
0000
0000
0110
0000
0000
0000
0000
0000
0000
0000
0000
0000
0000
0000
1100
0000
0000
0000
0000
0000
0001
0000
0000
0000
0000
0000
1000
0000
0000
0000
0000
0000
0000
0000
0010
0000
0000
0000
0000
0000
0000
0000
0100
0000
0000
0000
0000
0000
0000
0000
0001
0000
0000
0000
0000
0000
0000
0000
1000
0000
0000
0000
0000
0000
0000
0000
0010
0000
0000
0000
0000
0000
0000
0000
0100
0000
0000
0000
0000
0000
0000
0000
0001
0000
0000
0000
0000
0000
0000
0000
1000
0000
0000
0000
0000
0000
0000
0000
0010
0000
0000
0000
0000
0000
0000
0000
0100
0000
0000
0000
0000
0000
0000
0000
0001
0000
0000
0000
0000
0000
0000
0000
,
1000
0010
0100
0001
1000
0010
0100
0001
0010
0100
0010
0001
1000
0100
0010
0100
1000
0001
0100
0010
1000
0010
0100
0001
,
0100
0010
1000
0010
0100
0010
1000
0001
0010
0001
1000
0100
1000
0001
0010
0001
1000
0100
1000
0001
1000
0010
0100
0001
,
1000
0000
0000
0000
0000
0000
0000
0000
0010
0000
0000
0000
0000
0000
0000
0000
0100
0000
0000
0000
0000
0000
0000
0000
0001
0000
0000
0000
0000
0000
0000
0000
1000
0000
0000
0000
0000
0000
0000
0000
0010
0000
0000
0000
0000
0000
0000
0000
0100
0000
0000
0000
0000
0000
0000
0000
0001
0000
0000
0000
0000
0000
0000
0000
0010
0000
0000
0000
0000
0000
0000
0000
0100
0000
0000
0000
0000
0000
0000
0000
1000
0000
0000
0000
0000
0000
0000
0000
0100
0000
0000
0000
0000
0000
0000
0000
0011
0000
0000
0000
0000
0000
0000
0000
0000
0000
0000
0000
0000
0000
0000
0000
0000
0000
0110
0000
0000
0000
0000
0000
0000
0000
0000
0000
0000
0000
0000
0000
0000
0000
0000
0000
0101
0000
0000
0000
0000
0000
0000
0000
0000
0000
0000
0000
0000
0000
0000
0000
0000
0000
1010
0000
0000
0000
0000
0000
0000
0000
0000
0000
0000
0000
0000
0000
0000
0000
0000
0000
1100
0000
0000
0000
0000
0000
0000
0000
0000
0000
0000
0000
1001
0000
0000
0000
0000
0000
0100
0000
0000
0000
0000
0000
,
1010
0001
0010
0100
1001
0100
0010
0001
1010
0001
0220
0000
0000
0330
1000
0100
,
0011
0100
0010
0001
0110
1000
0100
0010
1001
0010
2200
0000
0000
3300
0001
0100
,
0011
1000
0010
0100
0011
0100
0010
1000
0011
0100
2020
0000
0000
3030
0100
0001
,
1010
0001
0010
0001
0100
0010
0100
0001
1100
0001
0100
1000
0100
0001
1000
0000
,
0110
0001
1000
0001
0110
1000
0001
1000
0110
0001
2200
0000
0000
3300
0001
0010
,
0101
0010
0001
1000
0101
0010
0001
1000
0101
0010
2002
0000
0000
3003
0010
0100
,
1010
0100
1000
0001
1010
0001
1000
0100
1010
0001
0220
0000
0000
0330
1000
0100
,
0011
0100
1000
0001
0100
0010
1000
0100
0011
0100
0001
1000
0010
0100
1000
0000
,
0110
0110
0000
0110
0000
0110
0110
0000
2100
0000
0000
0000
0001
0000
0000
3000
,
0120
0000
0000
0000
1000
0000
0000
0030
0201
0000
0000
0000
0010
0000
0000
0300
,
0012
0000
0000
0000
0100
0000
0000
0003
1200
0000
0000
0000
0010
0000
0000
0300
,
0021
0000
0000
0030
2100
0000
0000
3000
0201
0000
0000
0000
0010
0000
0000
0300
,
1000
0000
0100
0000
0010
0000
0001
0000
0100
0000
0010
0000
1000
0100
0010
0001
0010
0100
1000
0100
0010
0001
0010
0100
,
1000
0100
0010
0001
0010
0100
1000
0100
0010
0001
0010
0100
1000
0001
0010
0100
0010
0001
1000
0100
0010
0100
1000
0001
,
0010
0100
0010
0001
1000
0100
0010
0100
1000
0001
0010
0100
1000
0010
0100
0001
0100
0010
1000
0010
0100
0001
0100
0010
,
1000
0010
0100
0001
0100
0010
1000
0010
0100
0001
0100
0010
1000
0100
0010
0001
1000
0100
0010
0001
1000
0100
0010
0001
,
1000
0100
0010
0100
1000
0001
0010
0100
0010
0001
1000
0100
0010
0100
1000
0100
1000
0001
0100
0010
1000
0001
0100
0010
,
1000
0001
0100
0010
1000
0001
0100
0010
1000
0001
0100
0010
1000
0100
0010
0001
1000
0100
0010
0001
1000
0100
0010
0001
,
1000
0100
0010
0001
1000
0100
0010
0001
1000
0100
0010
0001
1000
0001
0100
0001
0010
0001
0100
0001
1000
0001
0100
0001
,
1000
0001
0100
0001
1000
0001
0010
0001
1000
0001
0100
0001
0010
0001
0100
0001
1000
0001
0010
0001
1000
0001
0100
0001
,
0010
0001
0100
0001
1000
0001
0100
0001
1000
0001
0100
0001
0010
1000
0001
1000
0010
1000
0100
1000
0010
1000
0001
1000
,
0100
1000
0001
1000
0010
1000
0001
1000
0010
1000
0001
1000
0100
0010
1000
0010
0100
0010
0001
0010
0100
0010
1000
0010
,
0001
0010
1000
0010
0100
0010
1000
0010
0100
0010
1000
0010
0100
0000
0010
0000
0100
0000
1000
0000
0001
0000
0010
0000
,
0001
0000
0100
0000
1000
0000
0100
0000
0001
0000
0010
0000
2200
0000
0000
0000
0000
0000
0000
0000
3300
0010
0001
0100
,
0022
0000
0000
0000
0000
0000
0000
0000
0033
0100
1000
0001
0220
0000
0000
0000
0000
0000
0000
0000
0000
0000
0000
0000
,
0000
0000
0000
0000
0000
0000
0000
0000
0330
1000
0001
0100
2020
0000
0000
0000
0000
0000
0000
0000
0000
0000
0000
0000
,
0000
0000
0000
0000
0000
0000
0000
0000
3030
0100
1000
0010
0202
0000
0000
0000
0000
0000
0000
0000
0000
0000
0000
0000
,
0000
0000
0000
0000
0000
0000
0000
0000
0000
0000
0000
0303
1010
0000
0101
0000
0110
0000
0011
0000
1010
0000
0101
0000
,
1001
0000
0011
0000
0110
0000
1001
0000
1100
0000
0011
0000
0001
0100
0001
0100
0001
0100
0001
0100
0001
0100
0001
0100
,
0010
0100
0001
0100
0001
0100
0001
0100
0001
0100
0001
0100
0001
0100
0001
0100
0001
0100
0001
0100
0001
0100
0001
0100
,
0010
0000
0100
0000
0001
0000
0100
0000
0001
0000
0100
0000
0001
0000
0100
0000
0001
0000
0100
0000
0001
0000
0100
0000
0001
0000
0000
0000
0000
0000
1000
0100
0000
0000
0000
0000
0100
0010
0001
0000
0000
0000
0010
0100
1000
0100
0000
0000
,
0010
0100
0001
0010
0000
0000
0001
0010
0100
1000
0000
0000
0100
0001
0010
1000
0000
0000
0100
0000
0100
0000
0100
0000
0011
0000
0000
0100
0000
0000
1010
0000
0000
0100
0000
0000
0001
0000
0000
1000
0000
0000
0100
0000
0000
0010
0000
0000
,
0100
0010
0001
1000
0001
0100
0010
0100
1001
0100
0011
0100
0001
1000
0010
0100
,
0011
1000
0010
0100
1010
0000
0101
0000
1010
0100
0011
0100
0010
0001
1000
0001
,
0100
0010
1000
0010
0100
0001
1000
0010
1100
0010
1000
0001
0100
0001
1010
0100
,
1000
0010
1000
0100
0011
0000
1001
0000
1001
0100
1010
0100
0010
0001
1000
0001
,
0010
0100
0010
0001
0100
0010
1000
0010
1100
0001
0110
0001
1000
0010
0100
0001
,
1010
0100
0010
1000
0101
0000
1010
0000
0011
0100
1001
0100
0010
1000
0001
0010
,
0100
1000
0001
0010
0001
1000
0100
0010
1001
0010
1100
0010
0001
1000
0010
0100
,
1010
0100
0001
1000
0011
0000
1100
0000
1010
0001
0110
1000
0001
0100
0010
0100
,
0001
1000
0100
1000
0010
0100
0001
0100
1001
0010
0101
1000
0100
0010
0001
0010
,
1100
0001
0100
0010
1001
0000
0110
0000
0101
1000
0110
1000
0001
0100
0001
0010
,
1100
0000
0000
0010
0000
0000
0001
0000
0000
0010
0000
0000
1100
0000
0000
0010
0000
0000
0001
0000
0000
0100
0000
0000
0001
0000
0010
0000
0100
0000
1000
0000
0001
0000
0010
0000
0100
0000
1000
0000
0001
0000
0010
0000
0100
0000
1000
0000
,
0001
0000
0010
0000
0100
0000
1000
0000
0001
0000
0010
0000
0100
0000
1000
0000
0001
0000
0010
0000
0100
0000
1000
0000
0220
0000
0000
0000
0000
0000
0000
0000
0000
0330
0000
0000
0220
0000
0000
0000
0000
0000
0000
0000
0000
0330
0000
0000
,
0000
0000
0000
0000
0000
0000
1000
0010
0000
0000
0000
0000
0000
0000
0000
0000
0000
0000
0000
0000
0000
0000
0000
0000
;
